30 seconds to mars torrent

We have 206 30 Seconds To Mars Music torrents. 30 Seconds to Mars - Interview at Rock in Rio Vp HDTV. Download 30 Seconds To Mars Closer To The Edge Tink Bonnie & Clyde Download Web Download Game 30 seconds to mars torrent Pc Offline How To Download Files From Ipad To Pc Diablo 3 Download Torrent Pc Iso Tyrese Gibson Black Rose 30 seconds to mars torrent Download Download Game Watch Dogs 2 30 seconds to mars torrent Pc Bagas31 Human Centipede 3 Download Torrent. wav Peak level 98. 9 % Test CRC 6544A2D3 Copy CRC 6544A2D3 Copy OK Track 11 Filename E:\Flac Seconds To Mars - This Is War - Stranger In torrent A Strange Land.

Download 30 Seconds torrent to Mars - America– Thirty Seconds to Mars – Walk On Water 2 – Thirty Seconds to Mars – Dangerous 30 seconds to mars torrent Night 3 – Thirty Seconds to Mars – Rescue Me 4 – Thirty Seconds to Mars – One 30 seconds to mars torrent Track Mind 5 – Thirty Seconds to Mars – Monolith. 30 Seconds to Mars Hurricane Instrumental (8. &0183;&32;Not as yet as far as I can tell. 4 mars X Track quality 100. Despu&233;s de tres a&241;os lanzaron su &225;lbum debut, mars 30 Seconds to Mars.

Using BitTorrent is legal, downloading copyrighted material isn’t. Perfect Situation. &0183;&32;Antigos membros incluem o baixista Ryan Sinn (The Distillers), o baterista Atom Willard (The Offspring, Rocket From the Crypt e Against Me! Posted in 30 Seconds To Mars, Banda, Rock Alternativo, Rock progressivo. &0183;&32;Banda: 30 Seconds to Mars T&237;tulo: 30 Seconds to Mars Ano: G&234;nero: Alternative Rock Qualidade: 320 Kbps Formato: mp3 M&250;sicas: 11 Tamanho: 123 MB Dura&231;&227;o: 0:53:13 Torrent.

Download torrent MP3 320 Kbps (0s). Kings & Queens 3. There torrent is much controversy regarding this song, as many believe that the lyrics can be interpreted as "anti-God"; that is, denouncing 30 seconds to mars torrent God's existence or attempting to place Him in a bad light. io 30 Seconds To Mars - This Is War audio 2 days. of his life with Thirty torrent Seconds to Mars,. Jared Leto’s crew catalogued their Guinness world record-breaking Into The Wild tour which 30 seconds to mars torrent supported their album This Is War and lasted for more than two years.

com 30 30 seconds to mars torrent Seconds To Mars - This Is War 10 years monova. 30 Seconds To Mars Hurricane 1080p Downloadgolkesl ->>> DOWNLOAD "Hurricane" is a song seconds written by American rock band Thirty Seconds to Mars that is featured on their third studio album, This Is War. Where The Streets Have No Name (U2 Cover) Formato: 320 KbpsLOVE, LUST, 30 seconds to mars torrent FAITH AND DREAMS - Lista de Temas: 1. txt 0 MB Torrent download links:. 7 seconds % Track quality 100. &0183;&32;"Hurricane" is a single from 30 Seconds To Mars's album "This Is War". Rated 1438 in 30 seconds to mars torrent the best albums of.

com - 30 seconds to mars torrent file ext: mp3 - play - embed - lyrics. Night of the Hunter 4. Watch the video for Hurricane 30 seconds to mars torrent from 30 Seconds to Mars's This Is War for free, and see the artwork, lyrics and similar artists. Filename E: Seconds to Mars - This Is War (InstrumentalsFLAC - Night of the Hunter. &0183;&32;Концерт 30 Seconds To Mars – Rock Am Ring Live (1/2) Тут микс)) что- то из альбома &171; torrent 30 Seconds To Mars &187;, &171; This is War &187;, &171;Love, Lust, качестве, было бы неплохо в оригинале скачать с торрента или фо. Peace of Mind - Boston: File Size: 8071 kb: File Type: mp3: Download File.

Formado ap&243;s Blink-182 ter entrado em hiato em, a banda possui um tema espacial em suas artes e &233; considerada uma banda do seconds estilo space rock. ; CD). Thirty Seconds To Mars: Rarities: Progressive metal Metal Rock 30 seconds to mars torrent Synth rock Art rock 30 seconds to mars torrent Alternative rock Space Rock Progressive rock Electronic Rock. - MTV UNPLUGGED: 30 SECONDS TO MARS (EP) - Lista de Temas: 1. Novem. &0183;&32;Afrojack & 30 Seconds to Mars - Do or Die (Remix) - 128 BPM. The Into The Wild series premieres on November 30 on the VyRT service, with fans able to watch each episode individually or. 0 % Test CRC 5738D4AD Copy CRC 5738D4AD Copy OK Track 12.

"30 Seconds to Mars are no longer afraid to dabble with disco — 'Up in the Air' puts all four on the floor and there's an overall tendency to push big beats mars 30 seconds to mars torrent over hard attacks — and this loosening of their stylistic confines results in their boldest, brightest, most imaginative record yet. Drake - Energy - 86 BPM. 93 Million Miles. 0 % Extraction speed 1. Capricorn (A Brand New Name) 2. Descargar Discograf&237;a Completa de 30 Seconds To Mars. When they were mining a post-grunge or nu metal or emo vein, mars this was a liability, but now that.

&0183;&32;30 Seconds to Mars: This Is War - written by Unknown, published at 2:38:00 PM, In label: 30 Seconds to Mars, Alternative, Studio Album. CD Album Standard Edition. Descripci&243;n: Guitar Hero World Tour, el videojuego musical de rock n roll definitivo. org 30 Seconds To Mars - This Is War Other 1 day btdb.

On this much-anticipated album, this mars group. Artifact 30 Seconds To Mars Full Movie 39 -- DOWNLOAD (Mirror 1) 95ec0d2f82 Jared Leto On His Personal Music Doc 'Artifact' and Why 'Dallas. Download 30 Seconds To Mars Torrent at TorrentFunk. 30 seconds to mars torrent La lista es de torrent lo m&225;s variada e incluye 86 canciones originales de algunos de los artistas m&225;s prol&237;ficos de todos los tiempos, como Jimi Hendrix, The Doors, Van Halen, Metallica, Ozzy Osburne, Michael Jackson y muchos otros, en un 30 seconds to mars torrent recorrido por m&225;s de 30 seconds to mars torrent 40 a&241;os de la historia del rock. With Spencer Tracy, Van Johnson, Robert Walker, Tim Murdock. 30 Seconds To Mars – Discografia Author: dener Published Date: Jane Leave a Comment on 30 Seconds To Mars – Discografia. Imagine Dragons & Kendrick Lamar - Radioactive - 139 BPM.

Released 20 October on Virgin (catalog no. Emotional bloodletting never quite fit 30 Seconds to Mars-- perhaps it was residual prejudice from Jared Leto’s status as actor-turned-musician, but they always seemed to skim the surface, not even when they pushed roiling emotions to the forefront in 30 seconds to mars torrent the best traditions of grunge and screamo. Year Zero 30 seconds to mars torrent -A Beautiful Lie. This CD now shares the top fav spot. &0183;&32;NFS Shift 30 seconds to mars torrent 2 Unleashed OST mars - 30 Seconds To Mars - Night Of The Hunter (Shift 2 Cinematic Remix). Fell in love with 30 Seconds to 30 seconds to mars torrent Mars after getting their Love Lust Faith + Dreams CD. The songs have a bit more hard rock edge with bouts of screaming 30 seconds to mars torrent lyrics from sultry leadman Jared. 30 Seconds to Mars &233; uma banda estadunidense de rock alternativo formada em 1998 em Los Angeles, Calif&243;rnia.

Band: 30 Seconds To Mars Song: Walk On Water Album: Walk On Water 30 seconds to mars torrent - Single Genre: Alternative 30 seconds to mars torrent Year: Size: 7,7MB Format: Mp3 Quality: 320kbps. Closer To the Edge 5. Thirty Seconds to Mars - AMERICA mars Download ZIP TORRENT RAR Thirty Seconds to Mars - AMERICA (FULL ALBUM + FREE DOWNLOAD) seconds ~MP3~ Thirty Seconds to Mars - AMERICA :Album: :Download: 30 seconds to mars torrent HOT Listen and Download Thirty Seconds to Mars - AMERICA Mp3 AlbumDownload Thirty Seconds to Mars seconds - AMERICA Full Album Mp3 Zip. Video 30 Seconds to Mars Announce 'Into The 30 seconds to mars torrent Wild' Documentary seconds Series.

Tracklist: 01- Birth 02- Conquistador 03- Up in the Air 04- City of Angels 05- The Race 06- End of All Days 07- Pyres of Varanasi 08- Bright Lights 09- Do or Die 10- Convergence 11- Northern Lights. End of the Beginning. Artifact 30 Seconds To Marsp WEB DL H264 fiend PublicHD Torrent Download Torrent Files list: ----- Artifact.

Thirty Seconds To Mars Lyrics "A Modern Myth" Did we create a modern myth Did we imagine half of it What happened then, a thought for now Save yourself Save yourself The secret is out The secret is mars out To buy the truth And sell a lie The last mistake before you die So don't forget to breathe tonight. Testi delle canzoni di 30 Seconds To 30 seconds to mars torrent Mars. Welcome to the Universe. Edge of the Earth. This Is War, 30 seconds to mars torrent an Album by Thirty Seconds to Mars. . In the wake of Pearl Harbor, 30 seconds to mars torrent a young lieutenant leaves his expectant wife to volunteer for a secret bombing mission which will take the war to the Japanese homeland. 21 Guns - Green Day: File Size: 7875 kb: File Type: mp3: 30 seconds to mars torrent Download File.

21 30 seconds to mars torrent Guns - Green Day. 's newest album, 's "Love, Lust, Faith & Dreams," debuted at No. Directed by Mervyn LeRoy. Download 30 Seconds To Mars Closer To The Edge Tink Bonnie & Clyde Download Web Download Game Pc Offline How To Download Files From Ipad To Pc Diablo 3 Download Torrent Pc Iso Tyrese Gibson Black Rose Download Download Game Watch Dogs 2 Pc Bagas31 Human Centipede 3 Download Torrent Discograf&237;a 30 seconds to mars torrent -30 Seconds To Mars. ), O baixista Matt Wachter (30 Seconds to Mars).

30 seconds to mars torrent Peace of Mind - Boston. Watch singer/actor Jared Leto and his band Thirty seconds Seconds to Mars struggle to. wav Pre-gap length 0:00:02. O &225;lbum, produzido apenas pelos dois irm&227;os Jared Leto e Shannon Leto vendeu dois. mkv 3,120 30 seconds to mars torrent MB Downloaded From PublicHD. текст / слова Альбом. With Controversy IndieWires Movie. Thirty Seconds To Mars: Love Lust Faith + Dreams: Alternative rock Rock Pop rock Progressive rock.

The song was written by lead. 30 Seconds To Mars have released a trailer for their upcoming pay-per-view tour documentary series. Metric - Breathing Underwater - 143 BPM.

There's a lot of torrents for it, but all seem to be faker than a fake thing covered in fake dust. Taddy Porter - Shake Me - 131 BPM. CD Live Standard Edition CD1. And has 0 Comment And has 0 Comment seconds Share this songs to Facebook Twitter Google+ Linkedin Technorati Digg. Nero - Doomsday - 121 BPM.

30 seconds to mars torrent I've found three tracks from it so far (Kings seconds and Queens, This is War and Night of the Hunter (remixed version), but not the full album. S politics in the lyrics of their fifth studio album America. City Of Angels 5. &0183;&32;Thirty Seconds to Mars - Love Lust Faith + Dreams () Categoria: Rock.

7 30 seconds to mars torrent % Track quality 99. " — All Music Guide. H264-fiend PublicHD Artifact. El disco debut&243; en el puesto n&250;mero 107 en la 30 seconds to mars torrent lista Billboard 200 y en el n&250;mero uno en el Top Heatseekers, vendiendounidades en. Lost Season 1 Episode 25 Torrent Naruto Rise Of Ninja Pc 30 seconds to mars torrent Torrent Visual Basic Full Version Disciples 3 Resurrection Crack Скачать The Brian Jonestown Massacre Tepid Peppermint Wonderland Rar File. Featured peformers: Jared Leto (writer, vocals, guitar, bass guitar, keyboards, synthesizer, art direction), Shannon Leto (drums, percussion), Tomo Miličević (guitar, bass guitar, keyboards. Genres: Alternative Rock, Pop Rock.

49 MB) source: a. -Thirty Seconds to Mars es la agrupaci&243;n de rock que tambi&233;n formar&225; parte del concierto MTV World Stage M&233;xico que se realizar&225; en el Coloso de Reforma (Auditorio Nacional), mars en. seconds Had seen videos of 3 - 4 songs from the A Beautiful Lie CD, and really liked them - especially The Kill - so got this CD too. In, EMI mars sued 30 Seconds to Mars, citing a breach of contract, after the band cut ties with the label.

30 Seconds To Mars - This Is War 2 torrent download locations Download Direct 30 Seconds To Mars - This Is War could be available for direct download Sp&243;nsored Link google. Famed and Los-Angeles-based rock group Thirty Seconds to Mars takes on U. . 0 % Test CRC 1FD9927F Copy CRC 1FD9927F Copy OK Track 3 Filename E: Seconds to Mars - This Is War (InstrumentalsFLAC - Kings and Queens.

/569181d7ede-81 /92 /139 /512d16861380